#TITLE:I say yeah;
#SUBTITLE:;
#ARTIST:Vanni G;
#TITLETRANSLIT:;
#SUBTITLETRANSLIT:;
#ARTISTTRANSLIT:;
#CREDIT:;
#BANNER:I Say Yeah-logo.jpg;
#BACKGROUND:I Say Yeah.jpg;
#LYRICSPATH:;
#CDTITLE:DD.png;
#MUSIC:I say yeah.mp3;
#OFFSET:-0.040;
#SAMPLESTART:100.000;
#SAMPLELENGTH:12.000;
#SELECTABLE:YES;
#BPMS:0.000=137.030;
#STOPS:;
#BGCHANGES:;
// cache tags:
#FIRSTBEAT:4.000;
#LASTBEAT:268.000;
#SONGFILENAME:Songs/lan sky/I say yeah/I say yeah.sm;
#HASMUSIC:1;
#HASBANNER:1;
#MUSICLENGTH:117.594;
// end cache tags

//---------------dance-single - Hener----------------
#NOTES:
     dance-single:
     Hener:
     Hard:
     9:
     0.950,1.000,0.655,0.153,0.876,659.000,77.000,18.000,0.000,33.000:

0000
0000
0000
0000
,
0200
0000
0000
0000
0000
0000
0000
1000
0010
1000
0010
1000
0010
1000
0310
1001
,
0100
0010
0001
0100
0010
0100
0001
1000
0010
0100
0001
0010
0001
0000
0000
1000
,
0100
0010
0100
0010
0010
0100
0000
0010
0001
0000
0000
0000
0010
0100
1000
0000
,
0010
0001
0010
1000
0100
0001
0100
0000
0010
0100
0010
0001
0010
0000
0100
0000
,
1000
0010
0100
0010
1000
0001
0010
1000
0100
0010
0000
0000
0001
1000
0100
0010
,
1101
0000
0010
0000
0101
0000
0100
0000
1000
0000
0010
0100
0010
0100
0010
0000
,
1000
0000
0000
0000
0100
0001
1000
0001
0100
1000
0100
1000
0100
0010
0001
0100
,
0010
0000
1000
0000
0010
0001
0010
0001
0010
0100
0100
0100
0100
0010
1000
0000
,
1111
0000
0010
0000
0001
0000
0010
0000
1000
0100
0010
0100
0001
0000
0000
0000
,
1011
0100
0010
0001
0100
0010
0100
0010
1000
0010
0010
0000
0010
0001
0100
0000
,
1000
0100
0001
0000
0010
0010
0000
0000
0010
0001
0000
0000
0010
0100
1000
0000
,
0010
0001
0010
0000
0100
1000
0010
0100
0010
1000
0010
0001
0010
0000
0100
0000
,
1000
0000
0000
0000
1000
0001
0000
0000
0100
0010
0000
0000
0001
1000
0000
0000
,
0100
0000
0001
0000
0010
1000
0010
0001
0010
1000
0010
0001
0010
1000
0000
0000
,
1000
0000
0010
0000
0001
1000
0001
0100
0001
1000
0001
0100
0001
1000
0000
0000
,
1101
0010
0001
1000
0010
0100
0001
1000
,
1011
0000
0000
0000
0001
0001
0010
0000
0100
0000
0010
0100
1000
0000
0000
0000
,
0110
1000
0100
0010
0001
0010
1000
0100
,
0100
0010
0001
0001
0010
0100
0010
0010
,
0100
0100
0010
0001
0001
1000
0001
0000
,
0001
0001
0010
0000
0100
0010
1000
0000
,
0001
0100
0010
0001
0010
1000
0010
0100
0001
0100
1000
0001
0010
0100
0000
0000
,
1000
0001
0000
0000
0010
0100
1000
0010
1000
0001
0010
0100
1000
0100
0000
0000
,
0001
1000
0001
0010
0100
0010
1000
0100
,
1001
0000
0000
0000
2012
0100
0000
0000
0220
0000
0000
0000
0000
0000
0000
3333
,
0001
0000
0010
0000
1000
0000
0100
0000
0001
0000
0010
0000
0001
0010
0000
0000
,
0001
1000
0000
0000
0001
0000
0001
0000
0100
0000
0001
0000
1000
0000
0010
0000
,
0010
0000
0010
0000
0100
0000
0010
0000
1000
0100
0001
0000
0001
0010
0100
0000
,
1000
0010
0100
0001
1000
0010
0001
0100
,
0100
0000
1000
0000
0010
0000
0001
0000
0010
0000
0010
0000
0100
0010
0000
0000
,
1000
0100
0001
0000
0010
0000
0100
0000
0100
0000
0010
0000
0001
0000
0010
0000
,
1000
0010
1000
0100
0010
0100
0001
0010
,
1001
0000
0000
0000
0100
0000
0000
0000
2002
0010
0100
0010
0220
0000
0000
0000
,
0000
0000
0000
0000
3333
0000
1000
0100
1000
0000
0100
0010
0100
0000
0001
0010
,
0001
0100
0010
0000
0100
0000
0001
0010
1000
0000
0010
0100
0010
0000
1000
0000
,
0001
0000
0010
0000
0001
0000
0010
0000
0001
0000
0100
0100
1000
0100
0100
0100
,
1000
0000
0010
0000
0100
0000
0010
0000
0001
0100
0000
0000
1000
0000
0000
0000
,
2100
0010
0100
0010
0100
0010
3000
0120
1000
0100
1000
0100
1000
0030
0210
0001
,
0010
0001
0010
0001
0300
0000
0010
0000
1001
0000
0110
0000
0101
0000
1101
0000
,
1100
0100
0110
0010
0011
0001
0101
1100
,
1001
0000
0000
0000
0000
0000
0000
0000
1210
0001
1000
0001
0010
0001
0010
1000
,
0001
0000
0010
0010
0001
1000
0010
0001
1000
0010
0001
1000
0001
0000
0000
0300
,
0001
0001
0100
0010
0001
0010
1000
0000
,
0001
1010
0100
1000
0100
0011
0001
1000
0001
0110
0100
0000
1000
0100
0110
0001
,
1001
0000
0010
0001
0100
0010
1000
0100
0010
0000
1000
1000
0100
0100
0010
0000
,
2100
0010
0001
0000
0001
0010
3100
0012
0100
1000
1000
0100
0010
0003
1200
0010
,
0001
0001
0010
1000
0300
0000
0000
0000
0010
1000
0001
0100
0010
0001
0100
0010
,
1000
0010
0100
0010
0100
1000
0100
0010
0100
0000
0100
0000
1000
0100
0010
0001
,
0111
1100
1101
0011
1101
0110
1011
0000
,
0010
0000
0000
0000
0010
0100
0001
0000
1000
0001
1000
0000
0010
1000
0000
0000
,
1101
0000
1010
0000
1110
0000
0101
0000
1011
0000
0000
0000
0100
0010
0100
0000
,
1000
0100
0010
0100
1110
0010
1000
0100
,
1011
0000
0000
0000
0001
0010
0100
1000
0100
1000
0001
0010
0001
0100
0000
0000
,
0011
0000
0000
0000
1000
0010
0100
1000
0010
1000
0100
0010
1000
0000
0000
0000
,
1001
0000
0000
0000
0010
1000
0001
0010
0100
0010
0001
1000
0010
0000
0000
0000
,
1000
0010
0001
0100
1000
0010
0001
0100
1000
0001
0010
0100
1000
0001
0010
0100
,
0110
1110
1001
1101
1111
0000
1011
0000
,
0010
0000
0000
0000
1011
0100
0010
0100
1000
0001
0110
0000
0010
1000
0010
0100
,
1001
0000
1100
0000
0110
0000
0011
0000
1001
0010
0100
0010
0100
0010
0100
0010
,
1000
0100
0010
0001
1010
0100
1000
0100
,
1010
0000
0100
0000
0001
0010
0001
1000
0100
1000
0010
0100
0001
0010
1000
0001
,
1110
0000
0000
0000
1000
0010
0100
1000
0010
1000
0100
0010
1000
0000
0000
0000
,
0111
0000
0000
0000
0010
0100
0001
1000
0100
1000
0001
0100
0010
0000
0000
0000
,
1000
0010
0100
0000
1000
0010
0100
0000
1000
0001
0010
0000
1000
0001
0010
0000
,
0110
1001
0110
1001
0110
0000
2112
0000
,
0110
0110
0000
0000
,
3003
0000
0000
0000
;
